  0
SECTION
  2
HEADER
  9
$ACADVER
  1
AC1014
  9
$ACADMAINTVER
 70
     9
  9
$DWGCODEPAGE
  3
ANSI_1252
  9
$INSBASE
 10
0.0
 20
0.0
 30
0.0
  9
$EXTMIN
 10
4.063246594266065
 20
4.082355094603354
 30
0.0
  9
$EXTMAX
 10
8.275661093247064
 20
8.018779784562955
 30
0.0
  9
$LIMMIN
 10
0.0
 20
0.0
  9
$LIMMAX
 10
12.0
 20
9.0
  9
$ORTHOMODE
 70
     0
  9
$REGENMODE
 70
     1
  9
$FILLMODE
 70
     1
  9
$QTEXTMODE
 70
     0
  9
$MIRRTEXT
 70
     1
  9
$DRAGMODE
 70
     2
  9
$LTSCALE
 40
1.0
  9
$OSMODE
 70
     0
  9
$ATTMODE
 70
     1
  9
$TEXTSIZE
 40
0.2
  9
$TRACEWID
 40
0.05
  9
$TEXTSTYLE
  7
STANDARD
  9
$CLAYER
  8
0
  9
$CELTYPE
  6
BYLAYER
  9
$CECOLOR
 62
   256
  9
$CELTSCALE
 40
1.0
  9
$DELOBJ
 70
     1
  9
$DISPSILH
 70
     0
  9
$DIMSCALE
 40
1.0
  9
$DIMASZ
 40
0.18
  9
$DIMEXO
 40
0.0625
  9
$DIMDLI
 40
0.38
  9
$DIMRND
 40
0.0
  9
$DIMDLE
 40
0.0
  9
$DIMEXE
 40
0.18
  9
$DIMTP
 40
0.0
  9
$DIMTM
 40
0.0
  9
$DIMTXT
 40
0.18
  9
$DIMCEN
 40
0.09
  9
$DIMTSZ
 40
0.0
  9
$DIMTOL
 70
     0
  9
$DIMLIM
 70
     0
  9
$DIMTIH
 70
     1
  9
$DIMTOH
 70
     1
  9
$DIMSE1
 70
     0
  9
$DIMSE2
 70
     0
  9
$DIMTAD
 70
     0
  9
$DIMZIN
 70
     0
  9
$DIMBLK
  1

  9
$DIMASO
 70
     1
  9
$DIMSHO
 70
     1
  9
$DIMPOST
  1

  9
$DIMAPOST
  1

  9
$DIMALT
 70
     0
  9
$DIMALTD
 70
     2
  9
$DIMALTF
 40
25.4
  9
$DIMLFAC
 40
1.0
  9
$DIMTOFL
 70
     0
  9
$DIMTVP
 40
0.0
  9
$DIMTIX
 70
     0
  9
$DIMSOXD
 70
     0
  9
$DIMSAH
 70
     0
  9
$DIMBLK1
  1

  9
$DIMBLK2
  1

  9
$DIMSTYLE
  2
STANDARD
  9
$DIMCLRD
 70
     0
  9
$DIMCLRE
 70
     0
  9
$DIMCLRT
 70
     0
  9
$DIMTFAC
 40
1.0
  9
$DIMGAP
 40
0.09
  9
$DIMJUST
 70
     0
  9
$DIMSD1
 70
     0
  9
$DIMSD2
 70
     0
  9
$DIMTOLJ
 70
     1
  9
$DIMTZIN
 70
     0
  9
$DIMALTZ
 70
     0
  9
$DIMALTTZ
 70
     0
  9
$DIMFIT
 70
     3
  9
$DIMUPT
 70
     0
  9
$DIMUNIT
 70
     2
  9
$DIMDEC
 70
     2
  9
$DIMTDEC
 70
     2
  9
$DIMALTU
 70
     2
  9
$DIMALTTD
 70
     2
  9
$DIMTXSTY
  7
STANDARD
  9
$DIMAUNIT
 70
     0
  9
$LUNITS
 70
     2
  9
$LUPREC
 70
     4
  9
$SKETCHINC
 40
0.1
  9
$FILLETRAD
 40
0.5
  9
$AUNITS
 70
     0
  9
$AUPREC
 70
     0
  9
$MENU
  1
.
  9
$ELEVATION
 40
0.0
  9
$PELEVATION
 40
0.0
  9
$THICKNESS
 40
0.0
  9
$LIMCHECK
 70
     0
  9
$BLIPMODE
 70
     0
  9
$CHAMFERA
 40
0.5
  9
$CHAMFERB
 40
0.5
  9
$CHAMFERC
 40
1.0
  9
$CHAMFERD
 40
0.0
  9
$SKPOLY
 70
     0
  9
$TDCREATE
 40
2452181.645532523
  9
$TDUPDATE
 40
2452643.330908912
  9
$TDINDWG
 40
0.0014392361
  9
$TDUSRTIMER
 40
0.0014392361
  9
$USRTIMER
 70
     1
  9
$ANGBASE
 50
0.0
  9
$ANGDIR
 70
     0
  9
$PDMODE
 70
     0
  9
$PDSIZE
 40
0.0
  9
$PLINEWID
 40
0.0
  9
$COORDS
 70
     1
  9
$SPLFRAME
 70
     0
  9
$SPLINETYPE
 70
     6
  9
$SPLINESEGS
 70
     8
  9
$ATTDIA
 70
     1
  9
$ATTREQ
 70
     1
  9
$HANDLING
 70
-16383
  9
$HANDSEED
  5
20E
  9
$SURFTAB1
 70
     6
  9
$SURFTAB2
 70
     6
  9
$SURFTYPE
 70
     6
  9
$SURFU
 70
     6
  9
$SURFV
 70
     6
  9
$UCSNAME
  2

  9
$UCSORG
 10
0.0
 20
0.0
 30
0.0
  9
$UCSXDIR
 10
1.0
 20
0.0
 30
0.0
  9
$UCSYDIR
 10
0.0
 20
1.0
 30
0.0
  9
$PUCSNAME
  2

  9
$PUCSORG
 10
0.0
 20
0.0
 30
0.0
  9
$PUCSXDIR
 10
1.0
 20
0.0
 30
0.0
  9
$PUCSYDIR
 10
0.0
 20
1.0
 30
0.0
  9
$USERI1
 70
     0
  9
$USERI2
 70
     0
  9
$USERI3
 70
     0
  9
$USERI4
 70
     0
  9
$USERI5
 70
     0
  9
$USERR1
 40
0.0
  9
$USERR2
 40
0.0
  9
$USERR3
 40
0.0
  9
$USERR4
 40
0.0
  9
$USERR5
 40
0.0
  9
$WORLDVIEW
 70
     1
  9
$SHADEDGE
 70
     3
  9
$SHADEDIF
 70
    70
  9
$TILEMODE
 70
     1
  9
$MAXACTVP
 70
    64
  9
$PINSBASE
 10
0.0
 20
0.0
 30
0.0
  9
$PLIMCHECK
 70
     0
  9
$PEXTMIN
 10
1.000000000000000E+20
 20
1.000000000000000E+20
 30
1.000000000000000E+20
  9
$PEXTMAX
 10
-1.000000000000000E+20
 20
-1.000000000000000E+20
 30
-1.000000000000000E+20
  9
$PLIMMIN
 10
0.0
 20
0.0
  9
$PLIMMAX
 10
12.0
 20
9.0
  9
$UNITMODE
 70
     0
  9
$VISRETAIN
 70
     1
  9
$PLINEGEN
 70
     0
  9
$PSLTSCALE
 70
     1
  9
$TREEDEPTH
 70
  3020
  9
$PICKSTYLE
 70
     1
  9
$CMLSTYLE
  2
STANDARD
  9
$CMLJUST
 70
     0
  9
$CMLSCALE
 40
1.0
  9
$PROXYGRAPHICS
 70
     1
  9
$MEASUREMENT
 70
     0
  0
ENDSEC
  0
SECTION
  2
CLASSES
  0
CLASS
  1
ACDBDICTIONARYWDFLT
  2
AcDbDictionaryWithDefault
  3
AutoCAD 2000
 90
        0
280
     0
281
     0
  0
CLASS
  1
ACDBPLACEHOLDER
  2
AcDbPlaceHolder
  3
AutoCAD 2000
 90
        0
280
     0
281
     0
  0
CLASS
  1
LAYOUT
  2
AcDbLayout
  3
AutoCAD 2000
 90
        0
280
     0
281
     0
  0
CLASS
  1
LONG_TRANSACTION
  2
AcDbLongTransaction
  3
AutoCAD 2000
 90
        0
280
     0
281
     0
  0
CLASS
  1
LWPOLYLINE
  2
AcDbPolyline
  3
AutoCAD 2000
 90
        0
280
     0
281
     1
  0
CLASS
  1
HATCH
  2
AcDbHatch
  3
AutoCAD 2000
 90
        0
280
     0
281
     1
  0
CLASS
  1
XRECORD
  2
AcDbXrecord
  3
AutoCAD 2000
 90
        0
280
     0
281
     0
  0
ENDSEC
  0
SECTION
  2
TABLES
  0
TABLE
  2
VPORT
  5
8
330
0
100
AcDbSymbolTable
 70
     3
  0
VPORT
  5
1E7
330
8
100
AcDbSymbolTableRecord
100
AcDbViewportTableRecord
  2
*ACTIVE
 70
     0
 10
0.0
 20
0.0
 11
1.0
 21
1.0
 12
6.581321473842802
 22
5.283088231257247
 13
0.0
 23
0.0
 14
0.5
 24
0.5
 15
0.5
 25
0.5
 16
0.0
 26
0.0
 36
1.0
 17
0.0
 27
0.0
 37
0.0
 40
8.99999999580908
 41
1.462515883100381
 42
50.0
 43
0.0
 44
0.0
 50
0.0
 51
0.0
 71
     0
 72
   100
 73
     1
 74
     3
 75
     0
 76
     0
 77
     0
 78
     0
  0
ENDTAB
  0
TABLE
  2
LTYPE
  5
5
330
0
100
AcDbSymbolTable
 70
     1
  0
LTYPE
  5
14
330
5
100
AcDbSymbolTableRecord
100
AcDbLinetypeTableRecord
  2
BYBLOCK
 70
     0
  3

 72
    65
 73
     0
 40
0.0
  0
LTYPE
  5
15
330
5
100
AcDbSymbolTableRecord
100
AcDbLinetypeTableRecord
  2
BYLAYER
 70
     0
  3

 72
    65
 73
     0
 40
0.0
  0
LTYPE
  5
16
330
5
100
AcDbSymbolTableRecord
100
AcDbLinetypeTableRecord
  2
CONTINUOUS
 70
     0
  3
Solid line
 72
    65
 73
     0
 40
0.0
  0
ENDTAB
  0
TABLE
  2
LAYER
  5
2
330
0
100
AcDbSymbolTable
 70
     4
  0
LAYER
  5
10
330
2
100
AcDbSymbolTableRecord
100
AcDbLayerTableRecord
  2
0
 70
     0
 62
     7
  6
CONTINUOUS
  0
LAYER
  5
34
330
2
100
AcDbSymbolTableRecord
100
AcDbLayerTableRecord
  2
L
 70
     0
 62
     7
  6
CONTINUOUS
  0
LAYER
  5
45
330
2
100
AcDbSymbolTableRecord
100
AcDbLayerTableRecord
  2
DEFPOINTS
 70
     0
 62
     7
  6
CONTINUOUS
  0
LAYER
  5
88
330
2
100
AcDbSymbolTableRecord
100
AcDbLayerTableRecord
  2
TX
 70
     0
 62
   150
  6
CONTINUOUS
  0
ENDTAB
  0
TABLE
  2
STYLE
  5
3
330
0
100
AcDbSymbolTable
 70
     3
  0
STYLE
  5
11
330
3
100
AcDbSymbolTableRecord
100
AcDbTextStyleTableRecord
  2
STANDARD
 70
     0
 40
0.0
 41
1.0
 50
0.0
 71
     0
 42
0.2
  3
txt
  4

  0
STYLE
  5
35
330
3
100
AcDbSymbolTableRecord
100
AcDbTextStyleTableRecord
  2
REG
 70
     0
 40
0.0
 41
1.0
 50
0.0
 71
     0
 42
0.09375
  3
E:\R13\com\fonts\ARCHITXT.SHX
  4

  0
STYLE
  5
36
330
3
100
AcDbSymbolTableRecord
100
AcDbTextStyleTableRecord
  2
DIMTXT
 70
     0
 40
0.0
 41
1.0
 50
0.0
 71
     0
 42
1.125
  3
archt.shx
  4

  0
ENDTAB
  0
TABLE
  2
VIEW
  5
6
330
0
100
AcDbSymbolTable
 70
     0
  0
ENDTAB
  0
TABLE
  2
UCS
  5
7
330
0
100
AcDbSymbolTable
 70
     0
  0
ENDTAB
  0
TABLE
  2
APPID
  5
9
330
0
100
AcDbSymbolTable
 70
     1
  0
APPID
  5
12
330
9
100
AcDbSymbolTableRecord
100
AcDbRegAppTableRecord
  2
ACAD
 70
     0
  0
ENDTAB
  0
TABLE
  2
DIMSTYLE
  5
A
330
0
100
AcDbSymbolTable
 70
     6
  0
DIMSTYLE
105
27
102
{ACAD_REACTORS
330
C1
330
E3
102
}
330
A
100
AcDbSymbolTableRecord
100
AcDbDimStyleTableRecord
  2
STANDARD
 70
     0
  3

  4

  5

  6

  7

 40
1.0
 41
0.18
 42
0.0625
 43
0.38
 44
0.18
 45
0.0
 46
0.0
 47
0.0
 48
0.0
140
0.18
141
0.09
142
0.0
143
25.4
144
1.0
145
0.0
146
1.0
147
0.09
 71
     0
 72
     0
 73
     1
 74
     1
 75
     0
 76
     0
 77
     0
 78
     0
170
     0
171
     2
172
     0
173
     0
174
     0
175
     0
176
     0
177
     0
178
     0
270
     2
271
     2
272
     2
273
     2
274
     2
340
11
275
     0
280
     0
281
     0
282
     0
283
     1
284
     0
285
     0
286
     0
287
     3
288
     0
  0
DIMSTYLE
105
37
330
A
100
AcDbSymbolTableRecord
100
AcDbDimStyleTableRecord
  2
1
 70
     0
  3

  4

  5

  6

  7

 40
1.0
 41
1.125
 42
0.5
 43
0.375
 44
1.19921875
 45
0.0
 46
0.5
 47
0.0
 48
0.0
140
1.125
141
0.125
142
0.0
143
25.4
144
1.0
145
0.0
146
0.8
147
0.5625
 71
     0
 72
     0
 73
     0
 74
     0
 75
     0
 76
     0
 77
     1
 78
     3
170
     0
171
     2
172
     1
173
     0
174
     1
175
     0
176
   133
177
   133
178
   150
270
     2
271
     3
272
     3
273
     2
274
     2
340
36
275
     0
280
     0
281
     0
282
     0
283
     1
284
     0
285
     0
286
     0
287
     4
288
     0
  0
DIMSTYLE
105
38
330
A
100
AcDbSymbolTableRecord
100
AcDbDimStyleTableRecord
  2
1$2
 70
     0
  3

  4

  5
DOTSMALL
  6

  7

 40
1.0
 41
1.5
 42
0.5
 43
0.375
 44
1.19921875
 45
0.0
 46
0.5
 47
0.0
 48
0.0
140
0.75
141
0.125
142
0.0
143
25.4
144
1.0
145
0.0
146
0.8
147
0.5625
 71
     0
 72
     0
 73
     0
 74
     0
 75
     0
 76
     0
 77
     1
 78
     3
170
     0
171
     2
172
     1
173
     0
174
     1
175
     0
176
   133
177
   133
178
   150
270
     2
271
     3
272
     3
273
     2
274
     2
340
36
275
     0
280
     0
281
     0
282
     0
283
     1
284
     0
285
     0
286
     0
287
     4
288
     0
  0
DIMSTYLE
105
39
330
A
100
AcDbSymbolTableRecord
100
AcDbDimStyleTableRecord
  2
1$4
 70
     0
  3

  4

  5

  6

  7
DOTSMALL
 40
1.0
 41
1.5
 42
0.5
 43
0.375
 44
1.19921875
 45
0.0
 46
0.5
 47
0.0
 48
0.0
140
0.75
141
0.125
142
0.0
143
25.4
144
1.0
145
0.0
146
0.8
147
0.5625
 71
     0
 72
     0
 73
     0
 74
     0
 75
     0
 76
     0
 77
     1
 78
     3
170
     0
171
     2
172
     1
173
     1
174
     1
175
     0
176
   133
177
   133
178
   150
270
     2
271
     3
272
     3
273
     2
274
     2
340
36
275
     0
280
     0
281
     0
282
     0
283
     1
284
     0
285
     0
286
     0
287
     4
288
     0
  0
DIMSTYLE
105
3A
330
A
100
AcDbSymbolTableRecord
100
AcDbDimStyleTableRecord
  2
1$3
 70
     0
  3

  4

  5
DOTSMALL
  6

  7

 40
1.0
 41
1.5
 42
0.5
 43
0.375
 44
1.19921875
 45
0.0
 46
0.5
 47
0.0
 48
0.0
140
0.75
141
0.125
142
0.0
143
25.4
144
1.0
145
0.0
146
0.8
147
0.5625
 71
     0
 72
     0
 73
     0
 74
     0
 75
     0
 76
     0
 77
     1
 78
     3
170
     0
171
     2
172
     1
173
     0
174
     1
175
     0
176
   133
177
   133
178
   150
270
     2
271
     3
272
     3
273
     2
274
     2
340
36
275
     0
280
     0
281
     0
282
     0
283
     1
284
     0
285
     0
286
     0
287
     4
288
     0
  0
DIMSTYLE
105
3B
330
A
100
AcDbSymbolTableRecord
100
AcDbDimStyleTableRecord
  2
1$7
 70
     0
  3

  4

  5

  6

  7

 40
1.0
 41
1.0
 42
0.5
 43
0.375
 44
1.19921875
 45
0.0
 46
0.5
 47
0.0
 48
0.0
140
0.75
141
0.125
142
0.0
143
25.4
144
1.0
145
0.0
146
0.8
147
0.5625
 71
     0
 72
     0
 73
     0
 74
     0
 75
     0
 76
     0
 77
     1
 78
     3
170
     0
171
     2
172
     1
173
     0
174
     1
175
     0
176
   133
177
   133
178
   150
270
     2
271
     3
272
     3
273
     2
274
     2
340
36
275
     0
280
     0
281
     0
282
     0
283
     1
284
     0
285
     0
286
     0
287
     4
288
     0
  0
ENDTAB
  0
TABLE
  2
BLOCK_RECORD
  5
1
330
0
100
AcDbSymbolTable
 70
     5
  0
BLOCK_RECORD
  5
1F
102
{ACAD_XDICTIONARY
360
20A
102
}
330
1
100
AcDbSymbolTableRecord
100
AcDbBlockTableRecord
  2
*MODEL_SPACE
  0
BLOCK_RECORD
  5
1B
102
{ACAD_XDICTIONARY
360
208
102
}
330
1
100
AcDbSymbolTableRecord
100
AcDbBlockTableRecord
  2
*PAPER_SPACE
  0
BLOCK_RECORD
  5
2B
330
1
100
AcDbSymbolTableRecord
100
AcDbBlockTableRecord
  2
_DOT
  0
BLOCK_RECORD
  5
30
330
1
100
AcDbSymbolTableRecord
100
AcDbBlockTableRecord
  2
_DOTSMALL
  0
BLOCK_RECORD
  5
C2
330
1
100
AcDbSymbolTableRecord
100
AcDbBlockTableRecord
  2
*D3
  0
BLOCK_RECORD
  5
E4
330
1
100
AcDbSymbolTableRecord
100
AcDbBlockTableRecord
  2
*D4
  0
ENDTAB
  0
ENDSEC
  0
SECTION
  2
BLOCKS
  0
BLOCK
  5
20
330
1F
100
AcDbEntity
  8
0
100
AcDbBlockBegin
  2
*MODEL_SPACE
 70
     0
 10
0.0
 20
0.0
 30
0.0
  3
*MODEL_SPACE
  1

  0
ENDBLK
  5
21
330
1F
100
AcDbEntity
  8
0
100
AcDbBlockEnd
  0
BLOCK
  5
1C
330
1B
100
AcDbEntity
 67
     1
  8
0
100
AcDbBlockBegin
  2
*PAPER_SPACE
 70
     0
 10
0.0
 20
0.0
 30
0.0
  3
*PAPER_SPACE
  1

  0
ENDBLK
  5
1D
330
1B
100
AcDbEntity
 67
     1
  8
0
100
AcDbBlockEnd
  0
BLOCK
  5
2E
330
2B
100
AcDbEntity
  8
0
100
AcDbBlockBegin
  2
_DOT
 70
     0
 10
0.0
 20
0.0
 30
0.0
  3
_DOT
  1

  0
LWPOLYLINE
  5
2C
330
2B
100
AcDbEntity
  8
L
 62
     0
100
AcDbPolyline
 90
        2
 70
     1
 43
0.5
 10
-0.25
 20
0.0
 42
1.0
 10
0.25
 20
0.0
 42
1.0
  0
LINE
  5
2D
330
2B
100
AcDbEntity
  8
L
 62
     0
100
AcDbLine
 10
-0.5
 20
0.0
 30
0.0
 11
-1.0
 21
0.0
 31
0.0
  0
ENDBLK
  5
2F
330
2B
100
AcDbEntity
  8
0
100
AcDbBlockEnd
  0
BLOCK
  5
32
330
30
100
AcDbEntity
  8
0
 48
0.116666
100
AcDbBlockBegin
  2
_DOTSMALL
 70
     0
 10
0.0
 20
0.0
 30
0.0
  3
_DOTSMALL
  1

  0
LWPOLYLINE
  5
31
330
30
100
AcDbEntity
  8
0
  6
BYBLOCK
 62
     0
100
AcDbPolyline
 90
        2
 70
     1
 43
0.5
 10
-0.0625
 20
0.0
 42
1.0
 10
0.0625
 20
0.0
 42
1.0
  0
ENDBLK
  5
33
330
30
100
AcDbEntity
  8
0
 48
0.116666
100
AcDbBlockEnd
  0
BLOCK
  5
CD
330
C2
100
AcDbEntity
  8
0
100
AcDbBlockBegin
  2
*D3
 70
     1
 10
0.0
 20
0.0
 30
0.0
  3
*D3
  1

  0
LINE
  5
D9
330
C2
100
AcDbEntity
  8
0
 62
     0
100
AcDbLine
 10
4.940329450743931
 20
7.351875439860618
 30
0.0
 11
4.123246594266067
 21
7.351875439860618
 31
0.0
  0
LINE
  5
DA
330
C2
100
AcDbEntity
  8
0
 62
     0
100
AcDbLine
 10
6.900740783030023
 20
5.413877554843995
 30
0.0
 11
4.123246594266066
 21
5.413877554843996
 31
0.0
  0
LINE
  5
DB
330
C2
100
AcDbEntity
  8
0
 62
     0
100
AcDbLine
 10
4.303246594266067
 20
7.171875439860619
 30
0.0
 11
4.303246594266067
 21
6.562876497352307
 31
0.0
  0
LINE
  5
DC
330
C2
100
AcDbEntity
  8
0
 62
     0
100
AcDbLine
 10
4.303246594266066
 20
5.593877554843996
 30
0.0
 11
4.303246594266067
 21
6.202876497352307
 31
0.0
  0
SOLID
  5
DD
330
C2
100
AcDbEntity
  8
0
 62
     0
100
AcDbTrace
 10
4.273246594266066
 20
7.171875439860619
 30
0.0
 11
4.333246594266067
 21
7.171875439860619
 31
0.0
 12
4.303246594266067
 22
7.351875439860618
 32
0.0
 13
4.303246594266067
 23
7.351875439860618
 33
0.0
  0
SOLID
  5
DE
330
C2
100
AcDbEntity
  8
0
 62
     0
100
AcDbTrace
 10
4.273246594266066
 20
5.593877554843996
 30
0.0
 11
4.333246594266066
 21
5.593877554843996
 31
0.0
 12
4.303246594266066
 22
5.413877554843996
 32
0.0
 13
4.303246594266066
 23
5.413877554843996
 33
0.0
  0
MTEXT
  5
DF
330
C2
100
AcDbEntity
  8
0
 62
     0
100
AcDbMText
 10
4.303246594266065
 20
6.382876497352308
 30
0.0
 40
0.18
 41
0.0
 71
     5
 72
     1
  1
\A1;1.94
1001
ACAD
1000
MTEXTBEGIN
1070
    73
1070
     1
1070
    44
1040
1.0
1070
    74
1070
     0
1000
MTEXTEND
  0
POINT
  5
E0
330
C2
100
AcDbEntity
  8
DEFPOINTS
 62
     0
100
AcDbPoint
 10
5.002829450743931
 20
7.351875439860618
 30
0.0
  0
POINT
  5
E1
330
C2
100
AcDbEntity
  8
DEFPOINTS
 62
     0
100
AcDbPoint
 10
6.963240783030023
 20
5.413877554843995
 30
0.0
  0
POINT
  5
E2
330
C2
100
AcDbEntity
  8
DEFPOINTS
 62
     0
100
AcDbPoint
 10
4.303246594266066
 20
5.413877554843996
 30
0.0
  0
ENDBLK
  5
CE
330
C2
100
AcDbEntity
  8
0
100
AcDbBlockEnd
  0
BLOCK
  5
EF
330
E4
100
AcDbEntity
  8
0
100
AcDbBlockBegin
  2
*D4
 70
     1
 10
0.0
 20
0.0
 30
0.0
  3
*D4
  1

  0
LINE
  5
E5
330
E4
100
AcDbEntity
  8
0
 62
     0
100
AcDbLine
 10
4.965698953720073
 20
7.388183750991124
 30
0.0
 11
4.965698953720073
 21
8.018779784562955
 31
0.0
  0
LINE
  5
E6
330
E4
100
AcDbEntity
  8
0
 62
     0
100
AcDbLine
 10
8.269240783030291
 20
7.381877554843615
 30
0.0
 11
8.269240783030291
 21
8.018779784562955
 31
0.0
  0
LINE
  5
E7
330
E4
100
AcDbEntity
  8
0
 62
     0
100
AcDbLine
 10
5.145698953720073
 20
7.838779784562955
 30
0.0
 11
6.272469868375182
 21
7.838779784562955
 31
0.0
  0
LINE
  5
E8
330
E4
100
AcDbEntity
  8
0
 62
     0
100
AcDbLine
 10
8.089240783030291
 20
7.838779784562955
 30
0.0
 11
6.962469868375182
 21
7.838779784562955
 31
0.0
  0
SOLID
  5
E9
330
E4
100
AcDbEntity
  8
0
 62
     0
100
AcDbTrace
 10
5.145698953720073
 20
7.868779784562955
 30
0.0
 11
5.145698953720073
 21
7.808779784562955
 31
0.0
 12
4.965698953720073
 22
7.838779784562955
 32
0.0
 13
4.965698953720073
 23
7.838779784562955
 33
0.0
  0
SOLID
  5
EA
330
E4
100
AcDbEntity
  8
0
 62
     0
100
AcDbTrace
 10
8.089240783030291
 20
7.868779784562955
 30
0.0
 11
8.089240783030291
 21
7.808779784562955
 31
0.0
 12
8.269240783030291
 22
7.838779784562955
 32
0.0
 13
8.269240783030291
 23
7.838779784562955
 33
0.0
  0
MTEXT
  5
EB
330
E4
100
AcDbEntity
  8
0
 62
     0
100
AcDbMText
 10
6.617469868375182
 20
7.838779784562955
 30
0.0
 40
0.18
 41
0.0
 71
     5
 72
     1
  1
\A1;3.30
1001
ACAD
1000
MTEXTBEGIN
1070
    73
1070
     1
1070
    44
1040
1.0
1070
    74
1070
     0
1000
MTEXTEND
  0
POINT
  5
EC
330
E4
100
AcDbEntity
  8
DEFPOINTS
 62
     0
100
AcDbPoint
 10
4.965698953720073
 20
7.325683750991124
 30
0.0
  0
POINT
  5
ED
330
E4
100
AcDbEntity
  8
DEFPOINTS
 62
     0
100
AcDbPoint
 10
8.269240783030291
 20
7.319377554843615
 30
0.0
  0
POINT
  5
EE
330
E4
100
AcDbEntity
  8
DEFPOINTS
 62
     0
100
AcDbPoint
 10
8.269240783030291
 20
7.838779784562955
 30
0.0
  0
ENDBLK
  5
F0
330
E4
100
AcDbEntity
  8
0
100
AcDbBlockEnd
  0
ENDSEC
  0
SECTION
  2
ENTITIES
  0
LWPOLYLINE
  5
BD
330
1F
100
AcDbEntity
  8
L
 62
     5
 48
0.116666
100
AcDbPolyline
 90
        2
 70
     0
 43
0.028125
 10
4.501603491062788
 20
4.273073695905029
 10
8.15463043071788
 20
4.273073695905029
  0
TEXT
  5
BE
330
1F
100
AcDbEntity
  8
L
 62
     3
 48
0.116666
100
AcDbText
 10
4.595339333743886
 20
4.366809538586014
 30
0.0
 40
0.140625
  1
BLEED FASCIA FRAME #2092
  7
REG
100
AcDbText
  0
TEXT
  5
BF
330
1F
100
AcDbEntity
  8
TX
 48
0.116666
100
AcDbText
 10
4.595339333743886
 20
4.085587853224044
 30
0.0
 40
0.09375
  1
SCALE : FULL SIZE
  7
REG
 11
4.595339333743886
 21
4.179337853224044
 31
0.0
100
AcDbText
 73
     3
  0
DIMENSION
  5
C1
330
1F
100
AcDbEntity
  8
0
100
AcDbDimension
  2
*D3
 10
4.303246594266066
 20
5.413877554843996
 30
0.0
 11
4.303246594266065
 21
6.382876497352308
 31
0.0
 70
    32
  3
STANDARD
100
AcDbAlignedDimension
 13
5.002829450743931
 23
7.351875439860618
 33
0.0
 14
6.963240783030023
 24
5.413877554843995
 34
0.0
 50
90.0
100
AcDbRotatedDimension
  0
DIMENSION
  5
E3
330
1F
100
AcDbEntity
  8
0
100
AcDbDimension
  2
*D4
 10
8.269240783030291
 20
7.838779784562955
 30
0.0
 11
6.617469868375182
 21
7.838779784562955
 31
0.0
 70
    32
  3
STANDARD
100
AcDbAlignedDimension
 13
4.965698953720073
 23
7.325683750991124
 33
0.0
 14
8.269240783030291
 24
7.319377554843615
 34
0.0
100
AcDbRotatedDimension
  0
LWPOLYLINE
  5
16F
330
1F
100
AcDbEntity
  8
L
 62
     5
100
AcDbPolyline
 90
      119
 70
     1
 43
0.0
 10
6.361785297845251
 20
7.077632822116274
 42
-0.4142135623715761
 10
6.361785297845081
 20
7.121473442549561
 10
6.49118583880233
 20
7.25087398350681
 42
-0.4142135623730951
 10
6.535026459236014
 20
7.250873983506583
 10
6.578513526278875
 20
7.207386916463722
 42
1.000000000000003
 10
6.624475467055908
 20
7.253348857240755
 10
6.53502645923573
 20
7.34279786506082
 42
0.4142135623730951
 10
6.491185838802557
 20
7.342797865060877
 10
6.337743667284776
 20
7.18935569354355
 42
-0.4142135623730951
 10
6.250062426417862
 20
7.18935569354355
 10
6.096620254900365
 20
7.342797865061161
 42
0.4142135623730951
 10
6.052779634466624
 20
7.342797865061104
 10
6.028738003906319
 20
7.318756234500572
 10
6.012388437702012
 20
7.257738822745038
 42
0.7673269879779389
 10
6.046830441406491
 20
7.237853722634529
 10
6.067628876990404
 20
7.258652158099867
 42
-0.4142135623730951
 10
6.088842080425884
 20
7.258652158099923
 10
6.100396025524215
 20
7.247098212923923
 42
-0.267949191533404
 10
6.104278311165053
 20
7.23260932556511
 10
6.088275496722673
 20
7.172886009002452
 42
0.7673269879764988
 10
6.101504296991443
 20
7.165248357606262
 10
6.131268487178211
 20
7.195012547793144
 42
-0.4142135623730951
 10
6.152481690613804
 20
7.195012547793087
 10
6.164035635786652
 20
7.183458602620208
 42
-0.2679491924299979
 10
6.167917921463022
 20
7.168969715225987
 10
6.15191510702951
 20
7.109246398695843
 42
0.7673269879764988
 10
6.165143907298279
 20
7.101608747299653
 10
6.194908097537229
 20
7.131372937485966
 42
-0.4142135623730951
 10
6.216121300972936
 20
7.131372937486251
 10
6.227675246112785
 20
7.119818992312205
 42
-0.2679491920349548
 10
6.231557531773724
 20
7.105330104933475
 10
6.215554717336346
 20
7.045606788388779
 42
0.7673269879764988
 10
6.228783517605116
 20
7.03796913699259
 10
6.25854770796554
 20
7.067733327179528
 42
-0.4142135623730951
 10
6.279760911400963
 20
7.067733327179414
 10
6.291314856464928
 20
7.056179382002016
 42
-0.2679491911164363
 10
6.295197142089428
 20
7.041690494659835
 10
6.279194327643041
 20
6.981967178082148
 42
0.767326987975021
 10
6.292423127911952
 20
6.974329526685753
 10
6.32218731794439
 20
7.004093716872805
 42
-0.4142135623730951
 10
6.343400521380154
 20
7.004093716872805
 10
6.354954466649446
 20
6.992539771704056
 42
-0.2679491936012534
 10
6.358836752372162
 20
6.978050884263414
 10
6.34283393794982
 20
6.918327567775099
 42
0.7673269879750209
 10
6.356062738218561
 20
6.910689916379144
 10
6.385826928405386
 20
6.940454106565741
 42
-0.4142135623730951
 10
6.407040131841149
 20
6.940454106565741
 10
6.418594077013796
 20
6.928900161393116
 42
-0.2679491924312928
 10
6.422476362690368
 20
6.914411273998641
 10
6.406473548256628
 20
6.85468795746827
 42
0.7673269879764988
 10
6.419702348525397
 20
6.84705030607208
 10
6.449466538833185
 20
6.876814496258905
 42
-0.4142135623730951
 10
6.470679742268949
 20
6.876814496258905
 10
6.482233687365741
 20
6.865260551083184
 42
-0.2679491915166976
 10
6.486115973005844
 20
6.850771663725229
 10
6.470113158563379
 20
6.791048347161684
 42
0.7673269879890097
 10
6.483341958832006
 20
6.783410695765471
 10
6.512494772798157
 20
6.812563509731535
 42
-0.4307158171346508
 10
6.534285126110098
 20
6.811953092300175
 10
6.881466956284935
 20
6.423525344735939
 42
-0.1843948771872145
 10
6.89724078303022
 20
6.382207783018859
 10
6.897240783029992
 20
6.030877554844185
 42
-0.4142135623730951
 10
6.835240783030094
 20
5.968877554844286
 10
6.428490566391992
 20
5.968877554844086
 42
-0.1989123673797158
 10
6.384649945958535
 20
5.987036934410728
 10
5.031525054277952
 20
7.340161826092098
 42
1.563919448591372
 10
5.006460915096404
 20
7.27200738116196
 42
-0.2247183236996971
 10
5.031272052145887
 20
7.262625824309427
 10
6.366055190646704
 20
5.878359727093052
 42
0.2036458298927683
 10
6.388370725344948
 20
5.86887755484415
 10
6.870240783030176
 20
5.868877554843923
 42
-0.4142135623730951
 10
6.932240783030074
 20
5.806877554844025
 10
6.932240783029733
 20
5.444877554843944
 42
0.4142135623741692
 10
6.963240783030023
 20
5.413877554843995
 10
7.20774078303004
 20
5.413877554844023
 42
0.8837275449702723
 10
7.215673853896141
 20
5.477894477070521
 42
-0.343701414799817
 10
7.192240783030065
 20
5.507956772117243
 10
7.192240783029951
 20
5.511377554844077
 42
1.000000000000003
 10
7.127240783029783
 20
5.511377554844077
 10
7.127240783029897
 20
5.493877554843923
 42
-0.4142135623708753
 10
7.112240783029911
 20
5.47887755484405
 10
7.012240783030001
 20
5.47887755484405
 42
-0.4142135623708751
 10
6.997240783029901
 20
5.493877554843923
 10
6.997240783030276
 20
6.429336716497093
 42
0.1989123673790997
 10
6.988161093246908
 20
6.451257026714049
 10
6.88346087533367
 20
6.555957244627221
 42
-0.6681786379202367
 10
6.905381185550432
 20
6.608877554844159
 10
7.112240783030365
 20
6.608877554843932
 42
-0.4142135623753146
 10
7.127240783030011
 20
6.593877554844059
 10
7.127240783030352
 20
6.576377554843904
 42
1.000000000000003
 10
7.192240783030065
 20
6.576377554843904
 10
7.192240783030092
 20
6.579798337570512
 42
-0.3437014148003175
 10
7.215673853896366
 20
6.609860632617468
 42
0.8837275449733875
 10
7.20774078303004
 20
6.673877554843986
 10
6.867256652806936
 20
6.673877554844227
 42
-0.668178637922889
 10
6.845336342590208
 20
6.726797865060664
 10
7.396336342590357
 20
7.277797865060604
 42
-0.1989123673798892
 10
7.418256652806867
 20
7.286877554844043
 10
7.613240783030342
 20
7.286877554844043
 42
-0.414213562372021
 10
7.644240783030291
 20
7.255877554843866
 10
7.644240783030177
 20
7.172877554843783
 42
0.4142135623741692
 10
7.675240783030467
 20
7.141877554843834
 10
8.238240783030342
 20
7.141877554843834
 42
0.4142135623730951
 10
8.269240783030291
 20
7.172877554843783
 10
8.269240783030291
 20
7.319377554843615
 42
1.000000000000003
 10
8.204240783030236
 20
7.319377554843843
 10
8.20424078303035
 20
7.23787755484361
 42
-0.4142135623741692
 10
8.173240783030287
 20
7.206877554843888
 10
8.010240783030276
 20
7.206877554843888
 10
8.000240783030285
 20
7.196877554843897
 10
7.990240783030294
 20
7.206877554843661
 10
7.740240783030294
 20
7.206877554844115
 42
-0.4142135623741692
 10
7.709240783030573
 20
7.237877554844065
 10
7.709240783030459
 20
7.320877554843921
 42
0.4142135623741692
 10
7.678240783030396
 20
7.351877554844097
 10
7.391332771252855
 20
7.351877554843904
 42
0.198912367379658
 10
7.369412461035899
 20
7.342797865060649
 10
6.754936668184946
 20
6.728322072209923
 42
-0.4142135623730951
 10
6.711096047751262
 20
6.728322072209696
  0
ENDSEC
  0
SECTION
  2
OBJECTS
  0
DICTIONARY
  5
C
330
0
100
AcDbDictionary
  3
ACAD_GROUP
350
D
  3
ACAD_LAYOUT
350
1A
  3
ACAD_MLINESTYLE
350
17
  3
ACAD_PLOTSETTINGS
350
19
  3
ACAD_PLOTSTYLENAME
350
E
  3
ACDBHEADERROUNDTRIPXREC
350
1E8
  0
DICTIONARY
  5
20A
330
1F
100
AcDbDictionary
280
     1
  3
ACAD_LAYOUTSELFREF
360
20B
  0
DICTIONARY
  5
208
330
1B
100
AcDbDictionary
280
     1
  3
ACAD_LAYOUTSELFREF
360
209
  0
DICTIONARY
  5
D
102
{ACAD_REACTORS
330
C
102
}
330
C
100
AcDbDictionary
  0
DICTIONARY
  5
1A
102
{ACAD_REACTORS
330
C
102
}
330
C
100
AcDbDictionary
  0
DICTIONARY
  5
17
102
{ACAD_REACTORS
330
C
102
}
330
C
100
AcDbDictionary
  3
STANDARD
350
18
  0
DICTIONARY
  5
19
102
{ACAD_REACTORS
330
C
102
}
330
C
100
AcDbDictionary
  0
ACDBDICTIONARYWDFLT
  5
E
102
{ACAD_REACTORS
330
C
102
}
330
C
100
AcDbDictionary
281
     1
  3
Normal
350
F
100
AcDbDictionaryWithDefault
340
F
  0
DICTIONARY
  5
1E8
102
{ACAD_REACTORS
330
C
102
}
330
C
100
AcDbDictionary
  3
CEPSNTYPE
350
1F2
  3
FINGERPRINTGUID
350
1F3
  3
HYPERLINKBASE
350
1EB
  3
INSUNITS
350
1F1
  3
LAYOUTDICT
350
1ED
  3
LWETCUNION
350
1F0
  3
PLOTSETDICT
350
1EE
  3
PLOTSTYLNAMDICT
350
1EF
  3
PSVPSCALE
350
1F5
  3
PUCSBASE
350
1F8
  3
PUCSORGBACK
350
1FE
  3
PUCSORGBOTTOM
350
1FA
  3
PUCSORGFRONT
350
1FD
  3
PUCSORGLEFT
350
1FB
  3
PUCSORGRIGHT
350
1FC
  3
PUCSORGTOP
350
1F9
  3
PUCSORTHOREF
350
1F6
  3
PUCSORTHOVIEW
350
1F7
  3
STYLESHEET
350
1EC
  3
TSTACKALIGN
350
1E9
  3
TSTACKSIZE
350
1EA
  3
UCSBASE
350
201
  3
UCSORGBACK
350
207
  3
UCSORGBOTTOM
350
203
  3
UCSORGFRONT
350
206
  3
UCSORGLEFT
350
204
  3
UCSORGRIGHT
350
205
  3
UCSORGTOP
350
202
  3
UCSORTHOREF
350
1FF
  3
UCSORTHOVIEW
350
200
  3
VERSIONGUID
350
1F4
  0
XRECORD
  5
20B
102
{ACAD_REACTORS
330
20A
102
}
330
20A
100
AcDbXrecord
340
1F
  0
XRECORD
  5
209
102
{ACAD_REACTORS
330
208
102
}
330
208
100
AcDbXrecord
340
1B
  0
MLINESTYLE
  5
18
102
{ACAD_REACTORS
330
17
102
}
330
17
100
AcDbMlineStyle
  2
STANDARD
 70
     0
  3

 62
   256
 51
90.0
 52
90.0
 71
     2
 49
0.5
 62
   256
  6
BYLAYER
 49
-0.5
 62
   256
  6
BYLAYER
  0
ACDBPLACEHOLDER
  5
F
102
{ACAD_REACTORS
330
E
102
}
330
E
100
AcDbPlaceHolder
280
     0
  0
XRECORD
  5
1F2
102
{ACAD_REACTORS
330
1E8
102
}
330
1E8
100
AcDbXrecord
 90
        0
  0
XRECORD
  5
1F3
102
{ACAD_REACTORS
330
1E8
102
}
330
1E8
100
AcDbXrecord
  1
{DC175E3D-AE85-11D5-9A93-0040C77E826B}
  0
XRECORD
  5
1EB
102
{ACAD_REACTORS
330
1E8
102
}
330
1E8
100
AcDbXrecord
  1

  0
XRECORD
  5
1F1
102
{ACAD_REACTORS
330
1E8
102
}
330
1E8
100
AcDbXrecord
 90
        1
  0
XRECORD
  5
1ED
102
{ACAD_REACTORS
330
1E8
102
}
330
1E8
100
AcDbXrecord
340
1A
  0
XRECORD
  5
1F0
102
{ACAD_REACTORS
330
1E8
102
}
330
1E8
100
AcDbXrecord
 90
    10781
  0
XRECORD
  5
1EE
102
{ACAD_REACTORS
330
1E8
102
}
330
1E8
100
AcDbXrecord
340
19
  0
XRECORD
  5
1EF
102
{ACAD_REACTORS
330
1E8
102
}
330
1E8
100
AcDbXrecord
340
E
  0
XRECORD
  5
1F5
102
{ACAD_REACTORS
330
1E8
102
}
330
1E8
100
AcDbXrecord
 40
0.0
  0
XRECORD
  5
1F8
102
{ACAD_REACTORS
330
1E8
102
}
330
1E8
100
AcDbXrecord
340
0
  0
XRECORD
  5
1FE
102
{ACAD_REACTORS
330
1E8
102
}
330
1E8
100
AcDbXrecord
 10
0.0
 20
0.0
 30
0.0
  0
XRECORD
  5
1FA
102
{ACAD_REACTORS
330
1E8
102
}
330
1E8
100
AcDbXrecord
 10
0.0
 20
0.0
 30
0.0
  0
XRECORD
  5
1FD
102
{ACAD_REACTORS
330
1E8
102
}
330
1E8
100
AcDbXrecord
 10
0.0
 20
0.0
 30
0.0
  0
XRECORD
  5
1FB
102
{ACAD_REACTORS
330
1E8
102
}
330
1E8
100
AcDbXrecord
 10
0.0
 20
0.0
 30
0.0
  0
XRECORD
  5
1FC
102
{ACAD_REACTORS
330
1E8
102
}
330
1E8
100
AcDbXrecord
 10
0.0
 20
0.0
 30
0.0
  0
XRECORD
  5
1F9
102
{ACAD_REACTORS
330
1E8
102
}
330
1E8
100
AcDbXrecord
 10
0.0
 20
0.0
 30
0.0
  0
XRECORD
  5
1F6
102
{ACAD_REACTORS
330
1E8
102
}
330
1E8
100
AcDbXrecord
340
0
  0
XRECORD
  5
1F7
102
{ACAD_REACTORS
330
1E8
102
}
330
1E8
100
AcDbXrecord
 70
     0
  0
XRECORD
  5
1EC
102
{ACAD_REACTORS
330
1E8
102
}
330
1E8
100
AcDbXrecord
  1

  0
XRECORD
  5
1E9
102
{ACAD_REACTORS
330
1E8
102
}
330
1E8
100
AcDbXrecord
 90
        1
  0
XRECORD
  5
1EA
102
{ACAD_REACTORS
330
1E8
102
}
330
1E8
100
AcDbXrecord
 90
       70
  0
XRECORD
  5
201
102
{ACAD_REACTORS
330
1E8
102
}
330
1E8
100
AcDbXrecord
340
0
  0
XRECORD
  5
207
102
{ACAD_REACTORS
330
1E8
102
}
330
1E8
100
AcDbXrecord
 10
0.0
 20
0.0
 30
0.0
  0
XRECORD
  5
203
102
{ACAD_REACTORS
330
1E8
102
}
330
1E8
100
AcDbXrecord
 10
0.0
 20
0.0
 30
0.0
  0
XRECORD
  5
206
102
{ACAD_REACTORS
330
1E8
102
}
330
1E8
100
AcDbXrecord
 10
0.0
 20
0.0
 30
0.0
  0
XRECORD
  5
204
102
{ACAD_REACTORS
330
1E8
102
}
330
1E8
100
AcDbXrecord
 10
0.0
 20
0.0
 30
0.0
  0
XRECORD
  5
205
102
{ACAD_REACTORS
330
1E8
102
}
330
1E8
100
AcDbXrecord
 10
0.0
 20
0.0
 30
0.0
  0
XRECORD
  5
202
102
{ACAD_REACTORS
330
1E8
102
}
330
1E8
100
AcDbXrecord
 10
0.0
 20
0.0
 30
0.0
  0
XRECORD
  5
1FF
102
{ACAD_REACTORS
330
1E8
102
}
330
1E8
100
AcDbXrecord
340
0
  0
XRECORD
  5
200
102
{ACAD_REACTORS
330
1E8
102
}
330
1E8
100
AcDbXrecord
 70
     0
  0
XRECORD
  5
1F4
102
{ACAD_REACTORS
330
1E8
102
}
330
1E8
100
AcDbXrecord
  1
{A74110ED-71DC-4C79-AFDF-FFF5CAB62A3F}
  0
ENDSEC
  0
EOF
